Passengers | uTorrent | TV Special
 * Dettagli Torrent   globale  | Commenti (0) 


- The Guardian - Salvataggio in mare (2006).H264.Italian.English.Ac3.5.1.sub.ita.iCV-MIRCrew -


Download via torrent:
Categoria bittorrent BDRip
Descrizione
The Guardian - Salvataggio in mare (2006).H264.Italian.English.Ac3.5.1.sub.ita.iCV-MIRCrew


[center]by www.icv-crew.org


NO FOUND ONLY ORIGINAL RELEASE



My release is always in double track audio italian and Original audio
for select it use VLC or dvd player home
not use wmp

The Guardian - Salvataggio in mare (2006)







Titolo originale The Guardian
Lingua originale inglese
Paese di produzione USA
Anno 2006
Durata 139 min
Rapporto 1.85 : 1
Genere azione, drammatico
Regia Andrew Davis
Sceneggiatura Ron L. Brinkerhoff
Produttore Beau Flynn, Tripp Vinson
Casa di produzione Beacon Pictures, Contrafilm, A School Productions, Eyetronics USA, Firm Films, Touchstone Pictures
Distribuzione (Italia) Eagle Pictures
Fotografia Stephen St. John
Montaggio Thomas J. Nordberg
Dennis Virkler
Musiche Trevor Rabin




   Kevin Costner: Ben Randall
   Ashton Kutcher: Jake Fischer
   Neal McDonough: Jack Skinner
   Melissa Sagemiller: Emily Thomas
   Clancy Brown: Cap. William Hadley
   Brian Geraghty: Billy Hodge
   Sela Ward: Helen Randall




Il film inizia con una voce fuori campo che parla di una leggenda di un uomo che vive in fondo al mare. Il capo di 1ª classe Ben Randall è un veterano dei Guardia Costiera degli Stati Uniti, con alle spalle innumerevoli salvataggi in mare. Il suo matrimonio è da tempo in crisi e la moglie Helen lo ha appena lasciato. Durante una delle spedizioni di salvataggio, per prestare soccorso ad un peschereccio, a causa di una tragica fatalità tutto il suo equipaggio perde la vita, tra cui il suo migliore amico Carl.



A high school swim champion with a troubled past enrolls in the U.S. Coast Guard's "A" School, where legendary rescue swimmer Ben Randall teaches him some hard lessons about loss, love, and self-sacrifice.








[spoiler]
General
Unique ID                                : 281100697064184444322665983603836255414 (0xD37A0665824B2826865582FBC62CFCB6)
Complete name                            : The Guardian (2006).H264.Ita.eng.sub.ita.iCV-MIRCrew.mkv
Format                                   : Matroska
Format version                           : Version 2
File size                                : 2.13 GiB
Duration                                 : 2h 18mn
Overall bit rate                         : 2 198 Kbps
Movie name                               : icv-crew
Encoded date                             : UTC 2017-09-08 16:04:27
Writing application                      : Lavf54.63.100
Writing library                          : Lavf54.63.100
COPYRIGHT                                : robbyrs
DATE                                     : 2017

Video
ID                                       : 1
Format                                   : AVC
Format/Info                              : Advanced Video Codec
Format profile                           : [email protected]
Format settings, CABAC                   : Yes
Format settings, ReFrames                : 2 frames
Codec ID                                 : V_MPEG4/ISO/AVC
Duration                                 : 2h 18mn
Bit rate                                 : 1 290 Kbps
Width                                    : 720 pixels
Height                                   : 384 pixels
Display aspect ratio                     : 16:9
Frame rate mode                          : Variable
Frame rate                               : 24.000 fps
Color space                              : YUV
Chroma subsampling                       : 4:2:0
Bit depth                                : 8 bits
Scan type                                : Progressive
Bits/(Pixel*Frame)                       : 0.194
Stream size                              : 1.22 GiB (57%)
Writing library                          : x264 core 130 r2273
Encoding settings                        : cabac=1 / ref=2 / deblock=1:0:0 / analyse=0x1:0x131 / me=hex / subme=7 / psy=1 / psy_rd=1.00:0.00 / mixed_ref=0 / me_range=16 / chroma_me=1 / trellis=1 / 8x8dct=0 / cqm=0 / deadzone=21,11 / fast_pskip=1 / chroma_qp_offset=-2 / threads=12 / lookahead_threads=2 / sliced_threads=0 / nr=0 / decimate=1 / interlaced=0 / bluray_compat=0 / constrained_intra=0 / bframes=3 / b_pyramid=0 / b_adapt=1 / b_bias=0 / direct=3 / weightb=1 / open_gop=0 / weightp=2 / keyint=240 / keyint_min=24 / scenecut=40 / intra_refresh=0 / rc_lookahead=40 / rc=abr / mbtree=1 / bitrate=1290 / ratetol=1.0 / qcomp=0.60 / qpmin=10 / qpmax=69 / qpstep=4 / vbv_maxrate=24000 / vbv_bufsize=24000 / nal_hrd=none / ip_ratio=1.40 / aq=1:1.00
Language                                 : Italian
Default                                  : Yes
Forced                                   : Yes

Audio #1
ID                                       : 2
Format                                   : AC-3
Format/Info                              : Audio Coding 3
Mode extension                           : CM (complete main)
Codec ID                                 : A_AC3
Duration                                 : 2h 18mn
Bit rate mode                            : Constant
Bit rate                                 : 448 Kbps
Channel(s)                               : 6 channels
Channel positions                        : Front: L C R, Side: L R, LFE
Sampling rate                            : 48.0 KHz
Bit depth                                : 16 bits
Compression mode                         : Lossy
Delay relative to video                  : 1mn 5s
Stream size                              : 445 MiB (20%)
Language                                 : Italian
Default                                  : Yes
Forced                                   : Yes

Audio #2
ID                                       : 3
Format                                   : AC-3
Format/Info                              : Audio Coding 3
Mode extension                           : CM (complete main)
Codec ID                                 : A_AC3
Duration                                 : 2h 18mn
Bit rate mode                            : Constant
Bit rate                                 : 448 Kbps
Channel(s)                               : 6 channels
Channel positions                        : Front: L C R, Side: L R, LFE
Sampling rate                            : 48.0 KHz
Bit depth                                : 16 bits
Compression mode                         : Lossy
Delay relative to video                  : 1mn 5s
Stream size                              : 445 MiB (20%)
Language                                 : English
Default                                  : No
Forced                                   : No

Text
ID                                       : 4
Format                                   : ASS
Codec ID                                 : S_TEXT/ASS
Codec ID/Info                            : Advanced Sub Station Alpha
Compression mode                         : Lossless
Title                                    : Sub.iTALiAN.(Hearing.Impaired)
Language                                 : Italian
Default                                  : No
Forced                                   : No

Menu
00:00:00.000                             : :To The Rescue
00:08:32.917                             : :Welcome To "A" School
00:18:31.917                             : :Exceeding Expectations
00:25:20.708                             : :The Bet
00:36:41.083                             : :Waiting To Surface
00:59:30.833                             : :Broken Records
01:15:54.625                             : :Barroom Brawl
01:27:28.292                             : :Open Water
01:37:52.042                             : :The First Rescue
01:45:15.208                             : :Saying Goodbye
02:00:26.417                             : :Never Let Go
02:08:50.125                             : :End Credits



[/spoiler]

[/center]

Info: Per scaricare devi usare un client come uTorrent o Transmission
AnnounceURL
udp://tracker.coppersurfer.tk:6969/announce
Hash 13e027cb7d40bc755978dafc27ce323dd1e4fe38
Peers seeds: 46 , leech: 10
Size 2.13 GB
Completato 1021x
Aggiunto 09.09.17 - 13:09:19
Uploader   robbyrs
Votazione (Voti: 1)


Condividi questo bittorrent:


html/blog:


bbcode/forum:




Aggiungi Commento