The Twilight Saga: Breaking Dawn – Part 2 | The Walking Dead Season 04 | Planes (2013) Hindi Dubbed [BRRip]
 * Dettagli Torrent   globale  | Commenti (0) 


- Il Permesso 48 ore fuori (2017).H264.Italian.Ac3.5.1.sub.NUita.iCV-MIRCrew -


Download via torrent:
Categoria bittorrent BDRip
Descrizione
Il Permesso 48 ore fuori (2017).H264.Italian.Ac3.5.1.sub.NUita.iCV-MIRCrew

[center]by www.icv-crew.org


NO FOUND ONLY ORIGINAL RELEASE



My release is always in double track audio italian and Original audio
for select it use VLC or dvd player home
not use wmp

Il Permesso 48 ore fuori (2017)







GENERE: Noir, Drammatico, Thriller
ANNO: 2017
REGIA: Claudio Amendola
PAESE: Italia
DURATA: 91 Min
DISTRIBUZIONE: Eagle Pictures



Claudio Amendola, Luca Argentero, Valentina Bellè, Giacomo Ferrara, Valentina Sperlì, Antonino Iuorio, Ivan Franek, Alessandra Roca, Massimo De Santis, Stefano Rabatti, Andrea Carpenzano, Gerry Mastrodomenico, Alice Pagani



A Luigi, Donato, Angelo e Rossana sono state concesse 48 ore di permesso fuori dal carcere di Civitavecchia. Per motivi differenti si trovano in galera, dove devono scontare il loro debito con la giustizia. Ma adesso sono fuori, e devono decidere in che modo spendere il poco tempo che gli è stato concesso..............



The Furlough is an ensemble movie, it is the story of four inmates during their 48 hours furlough, of their reality and how it has brought them behind bars. The characters are described ...








[spoiler]
General
Unique ID                                : 1616232506476412342384312917205095901 (0x137466A35AF4626D545E6A7B5B295DD)
Complete name                            : Il Permesso 48 ore fuori (2017).ita.sub.NUita.iCV-MIRCrew.mkv
Format                                   : Matroska
Format version                           : Version 2
File size                                : 1.08 GiB
Duration                                 : 1h 29mn
Overall bit rate                         : 1 728 Kbps
Movie name                               : icv-crew
Encoded date                             : UTC 2017-08-06 09:11:59
Writing application                      : Lavf54.63.100
Writing library                          : Lavf54.63.100
COPYRIGHT                                : robbyrs

Video
ID                                       : 1
Format                                   : AVC
Format/Info                              : Advanced Video Codec
Format profile                           : [email protected]
Format settings, CABAC                   : Yes
Format settings, ReFrames                : 2 frames
Codec ID                                 : V_MPEG4/ISO/AVC
Duration                                 : 1h 29mn
Bit rate                                 : 1 290 Kbps
Width                                    : 716 pixels
Height                                   : 300 pixels
Display aspect ratio                     : 2.40:1
Frame rate mode                          : Variable
Frame rate                               : 25.000 fps
Color space                              : YUV
Chroma subsampling                       : 4:2:0
Bit depth                                : 8 bits
Scan type                                : Progressive
Bits/(Pixel*Frame)                       : 0.240
Stream size                              : 798 MiB (72%)
Writing library                          : x264 core 130 r2273
Encoding settings                        : cabac=1 / ref=2 / deblock=1:0:0 / analyse=0x1:0x131 / me=hex / subme=7 / psy=1 / psy_rd=1.00:0.00 / mixed_ref=0 / me_range=16 / chroma_me=1 / trellis=1 / 8x8dct=0 / cqm=0 / deadzone=21,11 / fast_pskip=1 / chroma_qp_offset=-2 / threads=12 / lookahead_threads=2 / sliced_threads=0 / nr=0 / decimate=1 / interlaced=0 / bluray_compat=0 / constrained_intra=0 / bframes=3 / b_pyramid=0 / b_adapt=1 / b_bias=0 / direct=3 / weightb=1 / open_gop=0 / weightp=2 / keyint=250 / keyint_min=25 / scenecut=40 / intra_refresh=0 / rc_lookahead=40 / rc=abr / mbtree=1 / bitrate=1290 / ratetol=1.0 / qcomp=0.60 / qpmin=10 / qpmax=69 / qpstep=4 / vbv_maxrate=24000 / vbv_bufsize=24000 / nal_hrd=none / ip_ratio=1.40 / aq=1:1.00
Language                                 : Italian
Default                                  : Yes
Forced                                   : No
DURATION                                 : 01:29:31.040000000
NUMBER_OF_FRAMES                         : 134276
NUMBER_OF_BYTES                          : 6756801380
_STATISTICS_WRITING_APP                  : mkvmerge v8.7.0 ('All of the above') 64bit
_STATISTICS_WRITING_DATE_UTC             : 2017-07-16 22:30:59
_STATISTICS_TAGS                         : BPS DURATION NUMBER_OF_FRAMES NUMBER_OF_BYTES

Audio
ID                                       : 2
Format                                   : AC-3
Format/Info                              : Audio Coding 3
Mode extension                           : CM (complete main)
Codec ID                                 : A_AC3
Duration                                 : 1h 29mn
Bit rate mode                            : Constant
Bit rate                                 : 448 Kbps
Channel(s)                               : 6 channels
Channel positions                        : Front: L C R, Side: L R, LFE
Sampling rate                            : 48.0 KHz
Bit depth                                : 16 bits
Compression mode                         : Lossy
Delay relative to video                  : 1mn 5s
Stream size                              : 287 MiB (26%)
Title                                    : AC3 ITA
Language                                 : Italian
Default                                  : No
Forced                                   : No
DURATION                                 : 01:29:30.080000000
NUMBER_OF_FRAMES                         : 167815
NUMBER_OF_BYTES                          : 429606400
_STATISTICS_WRITING_APP                  : mkvmerge v8.7.0 ('All of the above') 64bit
_STATISTICS_WRITING_DATE_UTC             : 2017-07-16 22:30:59
_STATISTICS_TAGS                         : BPS DURATION NUMBER_OF_FRAMES NUMBER_OF_BYTES

Text
ID                                       : 3
Format                                   : ASS
Codec ID                                 : S_TEXT/ASS
Codec ID/Info                            : Advanced Sub Station Alpha
Compression mode                         : Lossless
Title                                    : NON UDENTI
Language                                 : Italian
Default                                  : No
Forced                                   : No
DURATION                                 : 01:23:54.080000000
NUMBER_OF_FRAMES                         : 778
NUMBER_OF_BYTES                          : 27395
_STATISTICS_WRITING_APP                  : mkvmerge v8.7.0 ('All of the above') 64bit
_STATISTICS_WRITING_DATE_UTC             : 2017-07-16 22:30:59
_STATISTICS_TAGS                         : BPS DURATION NUMBER_OF_FRAMES NUMBER_OF_BYTES

Menu
00:00:00.000                             : :00:00:00.000
00:07:30.400                             : :00:07:30.400
00:15:13.400                             : :00:15:13.400
00:21:36.400                             : :00:21:36.400
00:29:58.800                             : :00:29:58.800
00:39:22.400                             : :00:39:22.400
00:48:02.400                             : :00:48:02.400
00:55:01.400                             : :00:55:01.400
01:02:32.600                             : :01:02:32.600
01:10:27.200                             : :01:10:27.200
01:17:07.000                             : :01:17:07.000
01:25:03.600                             : :01:25:03.600



[/spoiler]

[/center]

Info: Per scaricare devi usare un client come uTorrent o Transmission
AnnounceURL
udp://tracker.coppersurfer.tk:6969/announce
Hash 3349125676884ac5c3831b9f2fe0144972fbbb6e
Peers seeds: 181 , leech: 22
Size 1.08 GB
Completato 5014x
Aggiunto 09.09.17 - 14:09:06
Uploader   robbyrs
Votazione (Voti: 1)


Condividi questo bittorrent:


html/blog:


bbcode/forum:




Aggiungi Commento