Job Or No Job 2 | Wróć na górę | Sherlock Season 3 Episode 3 His Last Vow
 * Dettagli Torrent   globale  | Commenti (0) 


- Prison.Break.5x01.Ogygia.ITA.ENG.1080p.BDMux.x264-Morpheus.mkv -


Download via torrent:
Categoria bittorrent SerieTv
Descrizione
[center]

GIUSEPPEiCV & LITTLELINX
HANNO IL PIACERE DI PRESENTARE


PRISON BREAK
STAGIONE 5
BDMUX 1080p

Dual Language ITA - ENG
Sub ITA - ENG
Trovi tutte le nostre serie su
IL CORSARO VERDE
www.icv-crew.org


.: Dati Serie :.


Titolo: Prison Break
Titolo originale: Prison Break
Paese: USA
Anno: 2017
Formato: Serie TV
Genere: drammatico, thriller, azione
Stagione: 5
Episodi: 9
Durata: 44 min. (episodio)
Ideatore: Paul Scheuring
Cast:
• Wentworth Miller: Michael J. Scofield
• Dominic Purcell:Lincoln Burrows
• Leon Russom: Generale Jonathan Krantz
• Robin Tunney: Veronica Donovan
• Peter Stormare: John Abruzzi
• Amaury Nolasco: Fernando Sucre
• Marshall Allman: Lincoln "L.J." Burrows jr.
• Stacy Keach: Henry Pope
• Wade Williams: Bradley "Brad" Bellick
• Paul Adelstein: Paul Kellerman
• Robert Knepper: Theodore "T-Bag" Bagwell
• Rockmond Dunbar: Benjamin Miles "C-Note" Franklin
• Sarah Wayne Callies: Sara Tancredi
[/center]

Due to a political conspiracy, an innocent man is sent to death row and his only hope is his brother, who makes it his mission to deliberately get himself sent to the same prison in order to break the both of them out, from the inside.

Michael Scofield, dopo otto anni dalla sua apparente morte, torna in azione! Da alcuni indizi, Sara e Lincoln, moglie e fratello dell'uomo, scoprono che Michael potrebbe essere ancora vivo e si troverebbe imprigionato in un carcere ad Ogygia. Così i due organizzano una missione per fare evadere Michael dallo Yemen, Paese in cui è in corso una guerra civile.

Ad aiutarli ci saranno tre fuggitivi del penitenziario di Fox River: T-Bag (Robert Knepper), C-Note (Rockmond Dunbar) e Sucre (Amaury Nolasco).


[center].: Screenshot :.




.: Caratteristiche Tecniche :.[/center]
[spoiler]
Prison.Break.5x01.Ogygia.ITA.ENG.1080p.BDMux.x264-Morpheus.mkv
Format                                   : Matroska
Format version                           : Version 4 / Version 2
File size                                : 2.99 GiB
Duration                                 : 42mn 23s
Overall bit rate                         : 10.1 Mbps
Encoded date                             : UTC 2017-09-11 22:47:47
Writing application                      : mkvmerge v7.6.0 ('Garden of Dreams') 64bit built on Feb  8 2015 15:12:28
Writing library                          : libebml v1.3.1 + libmatroska v1.4.2
DURATION                                 : 00:41:15.520000000
NUMBER_OF_FRAMES                         : 77360
NUMBER_OF_BYTES                          : 59412480
_STATISTICS_WRITING_APP                  : mkvmerge v7.6.0 ('Garden of Dreams') 64bit built on Feb  8 2015 15:12:28
_STATISTICS_WRITING_DATE_UTC             : 2017-09-11 22:47:47
_STATISTICS_TAGS                         : BPS DURATION NUMBER_OF_FRAMES NUMBER_OF_BYTES

Video
ID                                       : 1
Format                                   : AVC
Format/Info                              : Advanced Video Codec
Format profile                           : [email protected]
Format settings, CABAC                   : Yes
Format settings, ReFrames                : 4 frames
Codec ID                                 : V_MPEG4/ISO/AVC
Duration                                 : 42mn 23s
Bit rate                                 : 9 388 Kbps
Width                                    : 1 920 pixels
Height                                   : 1 080 pixels
Display aspect ratio                     : 16:9
Frame rate                               : 25.000 fps
Original frame rate                      : 23.976 fps
Color space                              : YUV
Chroma subsampling                       : 4:2:0
Bit depth                                : 8 bits
Scan type                                : Progressive
Bits/(Pixel*Frame)                       : 0.181
Stream size                              : 2.76 GiB (92%)
Writing library                          : x264 core 150 r2833 df79067
Encoding settings                        : cabac=1 / ref=4 / deblock=1:0:0 / analyse=0x3:0x133 / me=umh / subme=7 / psy=1 / psy_rd=1.00:0.00 / mixed_ref=1 / me_range=16 / chroma_me=1 / trellis=1 / 8x8dct=1 / cqm=0 / deadzone=21,11 / fast_pskip=0 / chroma_qp_offset=-2 / threads=34 / lookahead_threads=5 / sliced_threads=0 / nr=0 / decimate=1 / interlaced=0 / bluray_compat=0 / constrained_intra=0 / bframes=3 / b_pyramid=2 / b_adapt=1 / b_bias=0 / direct=1 / weightb=1 / open_gop=0 / weightp=2 / keyint=250 / keyint_min=23 / scenecut=40 / intra_refresh=0 / rc_lookahead=40 / rc=2pass / mbtree=1 / bitrate=9388 / ratetol=1.0 / qcomp=0.60 / qpmin=0 / qpmax=69 / qpstep=4 / cplxblur=20.0 / qblur=0.5 / ip_ratio=1.40 / aq=1:1.00
Language                                 : English
Default                                  : Yes
Forced                                   : No
DURATION                                 : 00:41:16.720000000
NUMBER_OF_FRAMES                         : 61918
NUMBER_OF_BYTES                          : 3030890136
_STATISTICS_WRITING_APP                  : mkvmerge v7.6.0 ('Garden of Dreams') 64bit built on Feb  8 2015 15:12:28
_STATISTICS_WRITING_DATE_UTC             : 2017-09-11 22:47:47
_STATISTICS_TAGS                         : BPS DURATION NUMBER_OF_FRAMES NUMBER_OF_BYTES

Audio #1
ID                                       : 2
Format                                   : AC-3
Format/Info                              : Audio Coding 3
Mode extension                           : CM (complete main)
Codec ID                                 : A_AC3
Duration                                 : 42mn 23s
Bit rate mode                            : Constant
Bit rate                                 : 192 Kbps
Channel(s)                               : 2 channels
Channel positions                        : Front: L R
Sampling rate                            : 48.0 KHz
Bit depth                                : 16 bits
Compression mode                         : Lossy
Stream size                              : 58.2 MiB (2%)
Title                                    : ITA
Language                                 : Italian
Default                                  : Yes
Forced                                   : Yes

Audio #2
ID                                       : 3
Format                                   : AC-3
Format/Info                              : Audio Coding 3
Mode extension                           : CM (complete main)
Codec ID                                 : A_AC3
Duration                                 : 42mn 23s
Bit rate mode                            : Constant
Bit rate                                 : 384 Kbps
Channel(s)                               : 6 channels
Channel positions                        : Front: L C R, Side: L R, LFE
Sampling rate                            : 48.0 KHz
Bit depth                                : 16 bits
Compression mode                         : Lossy
Stream size                              : 116 MiB (4%)
Title                                    : ENG
Language                                 : English
Default                                  : No
Forced                                   : No

Text #1
ID                                       : 4
Format                                   : UTF-8
Codec ID                                 : S_TEXT/UTF8
Codec ID/Info                            : UTF-8 Plain Text
Title                                    : ITA - Forced
Language                                 : Italian
Default                                  : Yes
Forced                                   : Yes

Text #2
ID                                       : 5
Format                                   : UTF-8
Codec ID                                 : S_TEXT/UTF8
Codec ID/Info                            : UTF-8 Plain Text
Language                                 : Italian
Default                                  : No
Forced                                   : No

Text #3
ID                                       : 6
Format                                   : UTF-8
Codec ID                                 : S_TEXT/UTF8
Codec ID/Info                            : UTF-8 Plain Text
Title                                    : ENG
Language                                 : English
Default                                  : No
Forced                                   : No


[/spoiler]

[center]

.: Ringraziamenti :.







RESTATE IN SEED ALTRIMENTI



[/center]
Info: Per scaricare devi usare un client come uTorrent o Transmission
AnnounceURL
http://tracker.tntvillage.scambioetico.org:2710/announce
Hash 61a0982513192dcf2029900b915cd27d65f206a7
Peers seeds: 53 , leech: 12
Size 2.99 GB
Completato 1019x
Aggiunto 11.09.17 - 23:09:46
Uploader   ppb1
Votazione (Voti: 0)


Condividi questo bittorrent:


html/blog:


bbcode/forum:




Aggiungi Commento