Agents of SHIELD 4.Sezon izle | Kesarin Chaichalermpol | Zoo Temporada 3
 * Dettagli Torrent   globale  | Commenti (0) 


- Yongary il più grande mostro (1973).H264.Italian.Ac3.iCV-MIRCrew -


Download via torrent:
Categoria bittorrent BDRip
Descrizione
Yongary il più grande mostro (1973).H264.Italian.Ac3.iCV-MIRCrew


[center]by www.icv.crew.org


NO FOUND ONLY ORIGINAL RELEASE



My release is always in double track audio italian and Original audio
for select it use VLC or dvd player home
not use wmp

Yongary il più grande mostro (1973)







GENERE: Fantascienza
ANNO: 1973
REGIA: Kim Duke
ATTORI: Lee Hunter, Young Onil, George Stampleton
PAESE: Giappone
DURATA: 82 Min
FORMATO: CINESCOPE EASTMANCOLOR
SCENEGGIATURA: Lee Brung
FOTOGRAFIA: Bruce Ryon
MUSICHE: Roger Smith
PRODUZIONE: TOEI COMPANY




Paul Shuman, Rich Fudansa, Mike Dawn, Tamio Kawaji, Joko Yamamoto, Tatsuya Fuji, Koji Wada, Juji Odaka



Un giovane pilota spaziale, appena partito in viaggio di nozze, viene immediatamente richiamato in servizio, per una missione urgente: il lancio da un satellite in orbita, di un ordigno nucleare sulla Terra. Mentre la missione, resta drammatica da una inesplicabile interruzione nei collegamenti-radio con la base, e da successive difficoltà di atterraggio, viene comunque condotta a termine, gli scienziati coreani, responsabili dell'operazione..................



Earthquakes in central Korea turn out to be the work of Yongary, a prehistoric gasoline-eating reptile that soon goes on a rampage through Seoul.









[spoiler]
General
Unique ID                                : 297418870796165732523831604275995932146 (0xDFC0CA7A56522A1A2AB82302083AF5F2)
Complete name                            : Yongary il più grande mostro (1973).H264.ita.iCV-MIRCrew.mkv
Format                                   : Matroska
Format version                           : Version 2
File size                                : 731 MiB
Duration                                 : 1h 8mn
Overall bit rate                         : 1 495 Kbps
Encoded date                             : UTC 2017-09-12T09:22:15Z
Writing application                      : HandBrake 0.10.5 2016021100
Writing library                          : Lavf55.12.0

Video
ID                                       : 1
Format                                   : AVC
Format/Info                              : Advanced Video Codec
Format profile                           : [email protected]
Format settings, CABAC                   : Yes
Format settings, ReFrames                : 4 frames
Codec ID                                 : V_MPEG4/ISO/AVC
Duration                                 : 1h 8mn
Bit rate                                 : 1 290 Kbps
Width                                    : 688 pixels
Height                                   : 298 pixels
Display aspect ratio                     : 2.35:1
Frame rate mode                          : Variable
Frame rate                               : 25.000 fps
Color space                              : YUV
Chroma subsampling                       : 4:2:0
Bit depth                                : 8 bits
Scan type                                : Progressive
Bits/(Pixel*Frame)                       : 0.252
Stream size                              : 622 MiB (85%)
Writing library                          : x264 core 142 r2479 dd79a61
Encoding settings                        : cabac=1 / ref=1 / deblock=1:0:0 / analyse=0x1:0x111 / me=hex / subme=2 / psy=1 / psy_rd=1.00:0.00 / mixed_ref=0 / me_range=16 / chroma_me=1 / trellis=0 / 8x8dct=0 / cqm=0 / deadzone=21,11 / fast_pskip=1 / chroma_qp_offset=0 / threads=3 / lookahead_threads=1 / sliced_threads=0 / nr=0 / decimate=1 / interlaced=0 / bluray_compat=0 / constrained_intra=0 / bframes=3 / b_pyramid=2 / b_adapt=1 / b_bias=0 / direct=1 / weightb=1 / open_gop=0 / weightp=1 / keyint=250 / keyint_min=25 / scenecut=40 / intra_refresh=0 / rc_lookahead=10 / rc=abr / mbtree=1 / bitrate=1290 / ratetol=1.0 / qcomp=0.60 / qpmin=0 / qpmax=69 / qpstep=4 / vbv_maxrate=20000 / vbv_bufsize=25000 / nal_hrd=none / filler=0 / ip_ratio=1.40 / aq=1:1.00
Default                                  : Yes
Forced                                   : No
Color primaries                          : BT.470-6 System B, BT.470-6 System G, BT.601-6 625, BT.1358 625, BT.1700 625 PAL, BT.1700 625 SECAM
Transfer characteristics                 : BT.709-5, BT.1361
Matrix coefficients                      : BT.601-6 525, BT.1358 525, BT.1700 NTSC, SMPTE 170M

Audio
ID                                       : 2
Format                                   : AC-3
Format/Info                              : Audio Coding 3
Mode extension                           : CM (complete main)
Codec ID                                 : A_AC3
Duration                                 : 1h 8mn
Bit rate mode                            : Constant
Bit rate                                 : 192 Kbps
Channel(s)                               : 2 channels
Channel positions                        : Front: L R
Sampling rate                            : 48.0 KHz
Bit depth                                : 16 bits
Compression mode                         : Lossy
Delay relative to video                  : 1mn 5s
Stream size                              : 93.8 MiB (13%)
Title                                    : Stereo
Default                                  : Yes
Forced                                   : No

Menu
00:00:00.000                             : :Chapter 1
00:09:02.000                             : :Chapter 2
00:17:23.600                             : :Chapter 3
00:23:12.080                             : :Chapter 4
00:29:56.240                             : :Chapter 5
00:37:00.080                             : :Chapter 6
00:46:00.080                             : :Chapter 7
00:51:35.600                             : :Chapter 8
00:58:11.600                             : :Chapter 9



[/spoiler]

[/center]

Info: Per scaricare devi usare un client come uTorrent o Transmission
AnnounceURL
udp://tracker.coppersurfer.tk:6969/announce
Hash 7b9775cc65d76224d0ab11115fab41e69ae11f56
Peers seeds: 14 , leech: 3
Size 730.83 MB
Completato 427x
Aggiunto 13.09.17 - 10:09:35
Uploader   robbyrs
Votazione (Voti: 1)


Condividi questo bittorrent:


html/blog:


bbcode/forum:




Aggiungi Commento