Veera Sivaji (2016) Hindi Dubbed [HDRip] | Em Breve | Noah(2014) 720p BluRay Dual Audio Hindi 750MB
 * Dettagli Torrent   globale  | Commenti (0) 


- DCs.Legends.of.Tomorrow.2x04.Abominio.ITA.ENG.1080p.BDMux.x264-Morpheus.mkv -


Download via torrent:
Categoria bittorrent SerieTv
Descrizione
[center]

GIUSEPPEiCV & LITTLELINX
HANNO IL PIACERE DI PRESENTARE


b]DCs LEGENDS OF TOMORROW[/b]
STAGIONE 2
BDMUX 1080p

Dual Language ITA - ENG
Sub ITA - ENG
Trovi tutte le nostre serie su
IL CORSARO VERDE
www.icv-crew.org




.: Dati Serie :.


Nazione: Stati Uniti d'America, Regno Unito
Anno: 2016-17
Genere: supereroi, azione, avventura, drammatico, fantascienza
Stagione 2
Episodi: 17
Durata: 43 min circa
Lingua: ITA - ENG
Cast:
• Victor Garber: Professor Martin Stein/Firestorm
• Brandon Routh: Ray Palmer/Atom
• Arthur Darvill: Rip Hunter
• Caity Lotz: Sara Lance/White Canary
• Franz Drameh: Jefferson "Jax" Jackson/Firestorm
• Ciara Renée: Kendra Saunders/Hawkgirl
• Falk Hentschel: Carter Hall/Hawkman
• Amy Pemberton: Gideon
• Dominic Purcell: Mick Rory/Heat Wave
• Wentworth Miller: Leonard Snart/Captain Cold
• Nick Zano: Nathan Heywood
• Maisie Richardson-Sellers: Amaya Jiwe/Vixen
• John Barrowman: Malcolm Merlyn
• Matt Letscher: Eobard Thawne/Reverse Flash


Focuses on time-traveling rogue Rip Hunter, who has to recruit a rag-tag team of heroes and villains to help prevent an apocalypse that could impact not only Earth, but all of time.

Il team dei Legends riprende a viaggiare nel tempo poiche' e' necessario mettere ordine nell'universo ora che i Signori del Tempo sono stati distrutti e che i Pirati del Tempo sono quindi liberi di girovagare tra un momento e l'altro per cambiare la storia a loro piacimento creando le aberrazioni temporali... l'umanita'


.: Screenshot :.









.: Caratteristiche Tecniche :.
[spoiler]

Dcs.Legends.of.Tomorrow.2x01.Fuori.Dal.Tempo.ITA.ENG.1080p.BDMux.x264-Morpheus.mkv
Format                                   : Matroska
Format version                           : Version 4 / Version 2
File size                                : 3.00 GiB
Duration                                 : 40mn 48s
Overall bit rate                         : 10.5 Mbps
Encoded date                             : UTC 2017-08-29 10:19:54
Writing application                      : mkvmerge v7.6.0 ('Garden of Dreams') 64bit built on Feb  8 2015 15:12:28
Writing library                          : libebml v1.3.1 + libmatroska v1.4.2
DURATION                                 : 00:40:48.480000000
NUMBER_OF_FRAMES                         : 76515
NUMBER_OF_BYTES                          : 117527040
_STATISTICS_WRITING_APP                  : mkvmerge v7.6.0 ('Garden of Dreams') 64bit built on Feb  8 2015 15:12:28
_STATISTICS_WRITING_DATE_UTC             : 2017-08-29 10:19:54
_STATISTICS_TAGS                         : BPS DURATION NUMBER_OF_FRAMES NUMBER_OF_BYTES

Video
ID                                       : 1
Format                                   : AVC
Format/Info                              : Advanced Video Codec
Format profile                           : [email protected]
Format settings, CABAC                   : Yes
Format settings, ReFrames                : 4 frames
Codec ID                                 : V_MPEG4/ISO/AVC
Duration                                 : 40mn 48s
Bit rate                                 : 9 519 Kbps
Width                                    : 1 920 pixels
Height                                   : 1 080 pixels
Display aspect ratio                     : 16:9
Frame rate                               : 25.000 fps
Original frame rate                      : 23.976 fps
Color space                              : YUV
Chroma subsampling                       : 4:2:0
Bit depth                                : 8 bits
Scan type                                : Progressive
Bits/(Pixel*Frame)                       : 0.184
Stream size                              : 2.77 GiB (93%)
Writing library                          : x264 core 152 r2851 ba24899
Encoding settings                        : cabac=1 / ref=4 / deblock=1:0:0 / analyse=0x3:0x133 / me=umh / subme=7 / psy=1 / psy_rd=1.00:0.00 / mixed_ref=1 / me_range=16 / chroma_me=1 / trellis=1 / 8x8dct=1 / cqm=0 / deadzone=21,11 / fast_pskip=0 / chroma_qp_offset=-2 / threads=24 / lookahead_threads=4 / sliced_threads=0 / nr=0 / decimate=1 / interlaced=0 / bluray_compat=0 / constrained_intra=0 / bframes=3 / b_pyramid=2 / b_adapt=1 / b_bias=0 / direct=1 / weightb=1 / open_gop=0 / weightp=2 / keyint=250 / keyint_min=23 / scenecut=40 / intra_refresh=0 / rc_lookahead=40 / rc=2pass / mbtree=1 / bitrate=9519 / ratetol=1.0 / qcomp=0.60 / qpmin=0 / qpmax=69 / qpstep=4 / cplxblur=20.0 / qblur=0.5 / ip_ratio=1.40 / aq=1:1.00
Language                                 : English
Default                                  : Yes
Forced                                   : No
DURATION                                 : 00:40:48.400000000
NUMBER_OF_FRAMES                         : 61210
NUMBER_OF_BYTES                          : 3035865834
_STATISTICS_WRITING_APP                  : mkvmerge v7.6.0 ('Garden of Dreams') 64bit built on Feb  8 2015 15:12:28
_STATISTICS_WRITING_DATE_UTC             : 2017-08-29 10:19:54
_STATISTICS_TAGS                         : BPS DURATION NUMBER_OF_FRAMES NUMBER_OF_BYTES

Audio #1
ID                                       : 2
Format                                   : AC-3
Format/Info                              : Audio Coding 3
Mode extension                           : CM (complete main)
Codec ID                                 : A_AC3
Duration                                 : 40mn 48s
Bit rate mode                            : Constant
Bit rate                                 : 192 Kbps
Channel(s)                               : 2 channels
Channel positions                        : Front: L R
Sampling rate                            : 48.0 KHz
Bit depth                                : 16 bits
Compression mode                         : Lossy
Stream size                              : 56.0 MiB (2%)
Title                                    : ITA
Language                                 : Italian
Default                                  : Yes
Forced                                   : Yes

Audio #2
ID                                       : 3
Format                                   : AC-3
Format/Info                              : Audio Coding 3
Mode extension                           : CM (complete main)
Codec ID                                 : A_AC3
Duration                                 : 40mn 48s
Bit rate mode                            : Constant
Bit rate                                 : 384 Kbps
Channel(s)                               : 6 channels
Channel positions                        : Front: L C R, Side: L R, LFE
Sampling rate                            : 48.0 KHz
Bit depth                                : 16 bits
Compression mode                         : Lossy
Stream size                              : 112 MiB (4%)
Title                                    : ENG
Language                                 : English
Default                                  : No
Forced                                   : No

Text #1
ID                                       : 4
Format                                   : UTF-8
Codec ID                                 : S_TEXT/UTF8
Codec ID/Info                            : UTF-8 Plain Text
Title                                    : ITA - Forced
Language                                 : Italian
Default                                  : Yes
Forced                                   : Yes

Text #2
ID                                       : 5
Format                                   : UTF-8
Codec ID                                 : S_TEXT/UTF8
Codec ID/Info                            : UTF-8 Plain Text
Language                                 : Italian
Default                                  : No
Forced                                   : No

Text #3
ID                                       : 6
Format                                   : VobSub
Muxing mode                              : zlib
Codec ID                                 : S_VOBSUB
Codec ID/Info                            : The same subtitle format used on DVDs
Language                                 : English
Default                                  : No
Forced                                   : No
[/spoiler]

.: Ringraziamenti :.




RESTATE IN SEED ALTRIMENTI

 

[/center]
Info: Per scaricare devi usare un client come uTorrent o Transmission
AnnounceURL
http://tracker.tntvillage.scambioetico.org:2710/announce
Hash 480399784958e6bcff0187ff87ec976158a94d5a
Peers seeds: 43 , leech: 12
Size 3.00 GB
Completato 1129x
Aggiunto 13.09.17 - 20:09:53
Uploader   ppb1
Votazione (Voti: 1)


Condividi questo bittorrent:


html/blog:


bbcode/forum:




Aggiungi Commento